Torrent Details

Venom (2018) English 720p HQ HDCamRip x264 AAC 900MB - MovC<font color=#ccc>r</font>
Venom (2018) English 720p HQ HDCamRip x264 AAC 900MB - MovCr
Size901 MB in 2 files
ReleasesAdded on 07.10.2018 at 20:40 into the Movies category by Unknown.
Status20 seeds & 84 peers.
Hash5200ffa9f6691b17700caf2e914c574d49d3131d
Rating
  • YourBT Visitors

Status This torrent has been verified.
*

Torrent Description

Our Site http://movcr.cc


Venom (2018) English 720p HDCamRip x264 AAC 900MB - MovCr




General
Unique ID : 62298426747505171302240699684757047043 (0x2EDE3D95160B404C3C7697FFC5560703)
Complete name : [www.MovCr.cc] Venom (2018) English 720p HQ HDCamRip x264 AAC 900MB - MovCrwww.MovCr.cc - Venom (2018) English 720p HDCamRip x264 AAC 900MB - MovCr.mkv
Format : Matroska
Format version : Version 4 / Version 2
File size : 901 MiB
Duration : 1 h 31 min
Overall bit rate : 1 383 kb/s
Movie name : www.MovCr.cc
Encoded date : UTC 2018-10-07 18:26:03
Writing application : mkvmerge v26.0.0 ('In The Game') 64-bit
Writing library : libebml v1.3.6 + libmatroska v1.4.9

Video
ID : 1
Format : AVC
Format/Info : Advanced Video Codec
Format profile : [email protected]
Format settings : 2 Ref Frames
Format settings, CABAC : No
Format settings, RefFrames : 2 frames
Format settings, GOP : M=1, N=25
Codec ID : V_MPEG4/ISO/AVC
Duration : 1 h 31 min
Bit rate : 1 185 kb/s
Width : 1 280 pixels
Height : 544 pixels
Display aspect ratio : 2.35:1
Frame rate mode : Constant
Frame rate : 29.970 (30000/1001) FPS
Color space : YUV
Chroma subsampling : 4:2:0
Bit depth : 8 bits
Scan type : Progressive
Bits/(Pixel*Frame) : 0.057
Stream size : 772 MiB (86%)
Title : www.MovCr.cc
Default : Yes
Forced : No

Audio
ID : 2
Format : AAC
Format/Info : Advanced Audio Codec
Format profile : LC
Codec ID : A_AAC-2
Duration : 1 h 31 min
Bit rate : 192 kb/s
Channel(s) : 2 channels
Channel positions : Front: L R
Sampling rate : 48.0 kHz
Frame rate : 46.875 FPS (1024 SPF)
Compression mode : Lossy
Stream size : 127 MiB (14%)
Title : www.MovCr.cc
Language : English
Default : Yes
Forced : No






Similar Torrents

No Similar Torrents Found

If we find similar torrents, we normally show them right here. We couldn't find anything for "".

Torrent Trackers

TRACKER URLSEEDSPEERS
Onlineudp://tracker.coppersurfer.tk:6969/announce2084
Onlineudp://tracker.opentrackr.org:1337/announce1132
Onlineudp://mgtracker.org:6969/announce825
Onlineudp://tracker.pirateparty.gr:6969/announce115
Onlineudp://tracker.open-internet.nl:6969/announce13
Onlineudp://tracker.zer0day.to:1337/announce01

Files inside this torrent

FILENAMESIZE
icon www.MovCr.cc - Venom (2018) English 720p HDCamRip x264 AAC 900MB - MovCr.mkv900.6 MB
icon www.MovCr.com.txt43 B