Torrent Details

The Predator 2018 720p HDCAM x264 AAC [MW]
The Predator 2018 720p HDCAM x264 AAC [MW]
Size1.2 GB in 1 file
ReleasesAdded on 07.10.2018 at 0:10 into the Movies category by Unknown.
Status4 seeds & 20 peers.
Hash9b363b398ea90b7ac9eae6f84891d7a4e443751c
Rating
  • YourBT Visitors

Status This torrent has been verified.
*

Torrent Description

General
Format : Matroska
Format version : Version 4 / Version 2
File size : 1.22 GiB
Duration : 1 h 41 min
Overall bit rate : 1 726 kb/s

Video
ID : 1
Format : AVC
Format/Info : Advanced Video Codec
Format profile : [email protected]
Format settings : CABAC / 4 Ref Frames
Format settings, CABAC : Yes
Format settings, RefFrames : 4 frames
Codec ID : V_MPEG4/ISO/AVC
Duration : 1 h 41 min
Bit rate : 1 500 kb/s
Width : 1 280 pixels
Height : 528 pixels
Display aspect ratio : 2.40:1
Frame rate mode : Constant
Frame rate : 30.000 FPS
Color space : YUV
Chroma subsampling : 4:2:0
Bit depth : 8 bits
Scan type : Progressive
Bits/(Pixel*Frame) : 0.074
Stream size : 1.06 GiB (87%)
Writing library : x264 core 155 r2901 7d0ff22
Default : Yes
Forced : No

Audio
ID : 2
Format : AAC
Format/Info : Advanced Audio Codec
Format profile : LC
Codec ID : A_AAC-2
Duration : 1 h 41 min
Bit rate : 226 kb/s
Channel(s) : 2 channels
Channel positions : Front: L R
Sampling rate : 48.0 kHz
Frame rate : 46.875 FPS (1024 SPF)
Compression mode : Lossy
Stream size : 164 MiB (13%)
Language : English
Default : Yes
Forced : No


Click To Enlarge Image








Similar Torrents

No Similar Torrents Found

If we find similar torrents, we normally show them right here. We couldn't find anything for "".

Torrent Trackers

TRACKER URLSEEDSPEERS
Onlineudp://tracker.coppersurfer.tk:6969/announce420
Onlineudp://tracker.opentrackr.org:1337/announce28
Onlineudp://tracker.pirateparty.gr:6969/announce29
Onlineudp://tracker.open-internet.nl:6969/announce24
Onlineudp://mgtracker.org:6969/announce13
Onlineudp://tracker.zer0day.to:1337/announce00

Files inside this torrent

FILENAMESIZE
icon The Predator 2018 720p HDCAM x264 AAC [MW].mkv1.2 GB