Torrent Details

Mulk 2018 Hindi 720p WEB-DL x264 [MW]
Mulk 2018 Hindi 720p WEB-DL x264 [MW]
Size1.1 GB in 1 file
ReleasesAdded on 03.10.2018 at 9:22 into the Movies category by Unknown.
Status106 seeds & 35 peers.
Hash246c2335ebbdf0c6fbdaa3c31e35769f4f133cfc
Rating
  • YourBT Visitors

Status This torrent has been verified.
*

Torrent Description

General
Format : Matroska
Format version : Version 4 / Version 2
File size : 1.07 GiB
Duration : 2 h 14 min
Overall bit rate : 1 139 kb/s

Video
ID : 1
Format : AVC
Format/Info : Advanced Video Codec
Format profile : [email protected]
Format settings : CABAC / 5 Ref Frames
Format settings, CABAC : Yes
Format settings, RefFrames : 5 frames
Codec ID : V_MPEG4/ISO/AVC
Duration : 2 h 14 min
Bit rate : 1 000 kb/s
Width : 1 280 pixels
Height : 536 pixels
Display aspect ratio : 2.40:1
Frame rate mode : Constant
Frame rate : 25.000 FPS
Color space : YUV
Chroma subsampling : 4:2:0
Bit depth : 8 bits
Scan type : Progressive
Bits/(Pixel*Frame) : 0.058
Stream size : 972 MiB (89%)
Writing library : x264 core 155 r2901 7d0ff22
Default : Yes
Forced : No

Audio
ID : 2
Format : AAC
Format/Info : Advanced Audio Codec
Format profile : LC
Codec ID : A_AAC-2
Duration : 2 h 14 min
Bit rate : 128 kb/s
Channel(s) : 2 channels
Channel positions : Front: L R
Sampling rate : 48.0 kHz
Frame rate : 46.875 FPS (1024 SPF)
Compression mode : Lossy
Stream size : 123 MiB (11%)
Language : Hindi
Default : Yes
Forced : No


Click To Enlarge Image









Similar Torrents

No Similar Torrents Found

If we find similar torrents, we normally show them right here. We couldn't find anything for "".

Torrent Trackers

TRACKER URLSEEDSPEERS
Onlineudp://tracker.pirateparty.gr:6969/announce10635
Onlineudp://tracker.coppersurfer.tk:6969/announce10029
Onlineudp://tracker.open-internet.nl:6969/announce8323
Onlineudp://tracker.opentrackr.org:1337/announce5917
Onlineudp://mgtracker.org:6969/announce5116
Onlineudp://tracker.zer0day.to:1337/announce34

Files inside this torrent

FILENAMESIZE
icon Mulk 2018 Hindi 720p WEB-DL x264 [MW].mkv1.1 GB