Torrent Details

Avengers Infinity War 2018 BRRip XviD B4ND1T69
Avengers Infinity War 2018 BRRip XviD B4ND1T69
Size1.5 GB in 4 files
ReleasesAdded on 03.10.2018 at 9:03 into the Movies category by Unknown.
Status9 seeds & 5 peers.
Hasha6b599a6a15e2ed0769e55295e502914afef208a
Rating
  • YourBT Visitors

Status This torrent has been verified.
*

Torrent Description

Avengers.Infinity.War.2018.BRRip.XviD.B4ND1T69



Directors: Anthony Russo, Joe Russo
Writers: Christopher Markus (screenplay by), Stephen McFeely (screenplay by)
Stars: Robert Downey Jr., Chris Hemsworth, Mark Ruffalo

Plot/Story:
As the Avengers and their allies have continued to protect the world from threats too large for any one hero to handle, a new danger has emerged from the cosmic shadows: Thanos. A despot of intergalactic infamy, his goal is to collect all six Infinity Stones, artifacts of unimaginable power, and use them to inflict his twisted will on all of reality. Everything the Avengers have fought for has led up to this moment - the fate of Earth and existence itself has never been more uncertain.

General
Complete name : Avengers.Infinity.War.2018.BRRip.XviD.B4ND1T69.avi
Format : AVI
Format/Info : Audio Video Interleave
File size : 1.50 GiB
Duration : 2 h 29 min
Overall bit rate : 1 438 kb/s
Subtitles : Yes...Included(HI)

Video
ID : 0
Format : MPEG-4 Visual
Format profile : Advanced [email protected]
Format settings, BVOP : 2
Format settings, QPel : No
Format settings, GMC : No warppoints
Format settings, Matrix : Default (H.263)
Codec ID : XVID
Codec ID/Hint : XviD
Duration : 2 h 29 min
Bit rate : 1 297 kb/s
Width : 720 pixels
Height : 304 pixels
Display aspect ratio : 2.35:1
Frame rate : 24.390 FPS
Color space : YUV
Chroma subsampling : 4:2:0
Bit depth : 8 bits
Scan type : Progressive
Compression mode : Lossy
Bits/(Pixel*Frame) : 0.243
Stream size : 1.35 GiB (90%)
Writing library : XviD 64

Audio
ID : 1
Format : MPEG Audio
Format version : Version 1
Format profile : Layer 3
Codec ID : 55
Codec ID/Hint : MP3
Duration : 2 h 29 min
Bit rate mode : Constant
Bit rate : 128 kb/s
Channel(s) : 2 channels
Sampling rate : 48.0 kHz
Compression mode : Lossy
Stream size : 137 MiB (9%)
Alignment : Aligned on interleaves
Interleave, duration : 24 ms (0.59 video frame)

Screenshots:










Please Seed For As Long As Possible
Or At Least 1:1 Ratio...Thanks
Enjoy Peeps



Similar Torrents

No Similar Torrents Found

If we find similar torrents, we normally show them right here. We couldn't find anything for "".

Torrent Trackers

TRACKER URLSEEDSPEERS
Onlineudp://tracker.opentrackr.org:1337/announce95
Onlineudp://tracker.pirateparty.gr:6969/announce73
Onlineudp://tracker.coppersurfer.tk:6969/announce62
Onlineudp://mgtracker.org:6969/announce30
Onlineudp://tracker.zer0day.to:1337/announce21
Onlineudp://tracker.open-internet.nl:6969/announce10

Files inside this torrent

FILENAMESIZE
icon Avengers.Infinity.War.2018.BRRip.XviD.B4ND1T69.avi1.5 GB
icon Avengers.Infinity.War.2018.BRRip.XviD.B4ND1T69.srt135.7 KB
icon Downloaded from katcr.co.txt139 B
icon Seeded by Seedplease SeedBoxes.txt198 B