Torrent Details

[MovCr cc] - Dhadak (2018) Hindi - 720p - HDTV - x264 - 1 4GB  - AC3 5 1 - MovC<font color=#ccc>r</font>
[MovCr cc] - Dhadak (2018) Hindi - 720p - HDTV - x264 - 1 4GB - AC3 5 1 - MovCr
Size1.3 GB in 1 file
ReleasesAdded on 01.10.2018 at 22:58 into the Movies category by Unknown.
Status0 seeds & 0 peers.
Hash02e1d32aec9256f027d5d349fe9534f1e57b6dd4
Rating
  • YourBT Visitors

Status This torrent has been verified.
*

Torrent Description

http://movcr.cc

Dhadak (2018) Hindi - 720p - HDTV - x264 - 1.3GB - AC3 5.1 - MovCr


Video
ID                                       : 1
Format                                   : AVC
Format/Info                              : Advanced Video Codec
Format profile                           : [email protected]
Format settings                          : CABAC / 1 Ref Frames
Format settings, CABAC                   : Yes
Format settings, RefFrames               : 1 frame
Format settings, GOP                     : M=1, N=12
Codec ID                                 : V_MPEG4/ISO/AVC
Duration                                 : 2 h 6 min
Bit rate                                 : 1 931 kb/s
Width                                    : 1 280 pixels
Height                                   : 720 pixels
Display aspect ratio                     : 1.734
Frame rate mode                          : Constant
Frame rate                               : 25.000 FPS
Standard                                 : Component
Color space                              : YUV
Chroma subsampling                       : 4:2:0
Bit depth                                : 8 bits
Scan type                                : Progressive
Bits/(Pixel*Frame)                       : 0.084
Stream size                              : 1.70 GiB (94%)
Title                                    : www.MovCr.cc
Default                                  : Yes
Forced                                   : No
Color range                              : Limited
Color primaries                          : BT.709
Transfer characteristics                 : BT.709
Matrix coefficients                      : BT.709

Audio
ID                                       : 2
Format                                   : AAC LC
Format/Info                              : Advanced Audio Codec Low Complexity
Codec ID                                 : A_AAC-2
Duration                                 : 2 h 6 min
Bit rate                                 : 127 kb/s
Channel(s)                               : 2 channels
Channel layout                           : L R
Sampling rate                            : 48.0 kHz
Frame rate                               : 46.875 FPS (1024 SPF)
Compression mode                         : Lossy
Stream size                              : 115 MiB (6%)
Title                                    : www.MovCr.cc
Language                                 : Hindi
Default                                  : Yes
Forced                                   : No







Similar Torrents

No Similar Torrents Found

If we find similar torrents, we normally show them right here. We couldn't find anything for "".

Torrent Trackers

Files inside this torrent

FILENAMESIZE
icon [MovCr.cc] - Dhadak (2018) Hindi - 720p - HDTV - x264 - 1.4GB - AC3 5.1 - MovCr.mkv1.3 GB