Torrent Details

The Predator (2018) English HDCAM Rip 720p x264 MP3 [1 2GB] Full Hollywood Movie
The Predator (2018) English HDCAM Rip 720p x264 MP3 [1 2GB] Full Hollywood Movie
Size871 MB in 1 file
ReleasesAdded on 29.09.2018 at 21:11 into the Movies category by Unknown.
Status44 seeds & 6 peers.
Hash5c3365e410f6efcb17de42eed76de820411c7fb9
Rating
  • YourBT Visitors

Status This torrent has been verified.
*

Torrent Description





General

Format                                   : Matroska

Format version                           : Version 4 / Version 2

File size                                : 1.27 GiB

Duration                                 : 1 h 41 min

Overall bit rate                         : 1 786 kb/s



Video

ID                                       : 1

Format                                   : AVC

Format/Info                              : Advanced Video Codec

Format profile                           : [email protected]

Format settings                          : CABAC / 4 Ref Frames

Format settings, CABAC                   : Yes

Format settings, RefFrames               : 4 frames

Codec ID                                 : V_MPEG4/ISO/AVC

Duration                                 : 1 h 41 min

Bit rate                                 : 1 500 kb/s

Width                                    : 1 280 pixels

Height                                   : 524 pixels

Display aspect ratio                     : 2.40:1

Frame rate mode                          : Constant

Frame rate                               : 29.970 (30000/1001) FPS

Color space                              : YUV

Chroma subsampling                       : 4:2:0

Bit depth                                : 8 bits

Scan type                                : Progressive

Bits/(Pixel*Frame)                       : 0.075

Stream size                              : 1.06 GiB (84%)

Writing library                          : x264 core 155 r2901 7d0ff22

Default                                  : Yes

Forced                                   : No



Audio #1

ID                                       : 2

Format                                   : AAC

Format/Info                              : Advanced Audio Codec

Format profile                           : LC

Codec ID                                 : A_AAC-2

Duration                                 : 1 h 41 min

Bit rate                                 : 192 kb/s

Channel(s)                               : 2 channels

Channel positions                        : Front: L R

Sampling rate                            : 48.0 kHz

Frame rate                               : 46.875 FPS (1024 SPF)

Compression mode                         : Lossy

Stream size                              : 140 MiB (11%)

Language                                 : Hindi

Default                                  : Yes

Forced                                   : No



Audio #2

ID                                       : 3

Format                                   : AAC

Format/Info                              : Advanced Audio Codec

Format profile                           : LC

Codec ID                                 : A_AAC-2

Duration                                 : 1 h 41 min

Bit rate                                 : 96.0 kb/s

Channel(s)                               : 2 channels

Channel positions                        : Front: L R

Sampling rate                            : 48.0 kHz

Frame rate                               : 46.875 FPS (1024 SPF)

Compression mode                         : Lossy

Stream size                              : 70.0 MiB (5%)

Language                                 : English

Default                                  : No

Forced                                   : No













Similar Torrents

No Similar Torrents Found

If we find similar torrents, we normally show them right here. We couldn't find anything for "".

Torrent Trackers

TRACKER URLSEEDSPEERS
Onlineudp://tracker.coppersurfer.tk:6969/announce445
Onlineudp://tracker.pirateparty.gr:6969/announce434
Onlineudp://tracker.opentrackr.org:1337/announce316
Onlineudp://mgtracker.org:6969/announce264
Onlineudp://tracker.open-internet.nl:6969/announce120
Onlineudp://tracker.zer0day.to:1337/announce31

Files inside this torrent

FILENAMESIZE
icon The Predator (2018) English HDCAM Rip 720p x264 MP3 [1.2GB] Full Hollywood Movie.mkv870.7 MB