Torrent Details

Photo Not Available
[1337xHD Com] The Predator (2018) Dual Audio HDCAM 720p [Audio Cleand] [Hindi-English] x264 1 1GB [1337xHD Com]
Size1.1 GB in 11 files
ReleasesAdded on 23.09.2018 at 22:00 into the Movies category by Unknown.
Status0 seeds & 0 peers.
Hash738aceae82f0402b6a753ee7e3b779a587625d76
Rating
  • YourBT Visitors

Status This torrent has been verified.
*

Torrent Description

http://1337xhd.com/



http://hdfilmboss.net/

General
Format : Matroska
Format version : Version 4 / Version 2
File size : 1.08 GiB
Duration : 1 h 40 min
Overall bit rate : 1 541 kb/s
Movie name : HDFilmBoss.Net
Encoded date : UTC 2018-09-14 12:10:33
Writing application : mkvmerge v25.0.0 ('Prog Noir') 32-bit
Writing library : libebml v1.3.6 + libmatroska v1.4.9

Video
ID : 1
Format : AVC
Format/Info : Advanced Video Codec
Format profile : [email protected]
Format settings : CABAC / 4 Ref Frames
Format settings, CABAC : Yes
Format settings, RefFrames : 4 frames
Codec ID : V_MPEG4/ISO/AVC
Duration : 1 h 40 min
Bit rate : 1 470 kb/s
Width : 1 280 pixels
Height : 536 pixels
Display aspect ratio : 2.40:1
Frame rate mode : Constant
Frame rate : 25.000 FPS
Color space : YUV
Chroma subsampling : 4:2:0
Bit depth : 8 bits
Scan type : Progressive
Bits/(Pixel*Frame) : 0.086
Stream size : 1.03 GiB (96%)
Title : WWW.1337x HD.Com
Writing library : x264 core 148 r2643 5c65704
Default : Yes
Forced : No

Audio
ID : 2
Format : AAC
Format/Info : Advanced Audio Codec
Format profile : LC
Codec ID : A_AAC-2
Duration : 1 h 40 min
Bit rate : 64.0 kb/s
Channel(s) : 1 channel
Channel positions : Front: C
Sampling rate : 44.1 kHz
Frame rate : 43.066 FPS (1024 SPF)
Compression mode : Lossy
Delay relative to video : -46 ms
Stream size : 45.9 MiB (4%)
Title : WWW.1337x HD.Com
Language : Hindi
Default : Yes
Forced : No




http://hdfilmboss.net/

http://1337xhd.com/



Similar Torrents

No Similar Torrents Found

If we find similar torrents, we normally show them right here. We couldn't find anything for "".

Torrent Trackers

Files inside this torrent

FILENAMESIZE
icon [1337xHD.Com] The Predator (2018) Dual Audio HDCAM 720p [Audio Cleand] [Hindi-English] x264 1.1GB [1337xHD.Com].mkv1.1 GB
icon [1337xHD.Com] The Predator (2018) Dual Audio HDCAM 720p [Audio Cleand] [Hindi-English] x264 1.1GB [1337xHD.Com].mkv_000657985.jpg37.8 KB
icon [1337xHD.Com] The Predator (2018) Dual Audio HDCAM 720p [Audio Cleand] [Hindi-English] x264 1.1GB [1337xHD.Com].mkv_000941903.jpg42.1 KB
icon [1337xHD.Com] The Predator (2018) Dual Audio HDCAM 720p [Audio Cleand] [Hindi-English] x264 1.1GB [1337xHD.Com].mkv_001418800.jpg52.5 KB
icon [1337xHD.Com] The Predator (2018) Dual Audio HDCAM 720p [Audio Cleand] [Hindi-English] x264 1.1GB [1337xHD.Com].mkv_001676041.jpg62.1 KB
icon [1337xHD.Com] The Predator (2018) Dual Audio HDCAM 720p [Audio Cleand] [Hindi-English] x264 1.1GB [1337xHD.Com].mkv_001694202.jpg51.3 KB
icon [1337xHD.Com] The Predator (2018) Dual Audio HDCAM 720p [Audio Cleand] [Hindi-English] x264 1.1GB [1337xHD.Com].mkv_002766982.jpg36.1 KB
icon [1337xHD.Com] The Predator (2018) Dual Audio HDCAM 720p [Audio Cleand] [Hindi-English] x264 1.1GB [1337xHD.Com].mkv_003095606.jpg29.2 KB
icon 1337xHD.Com Free All HD Movie URL.txt16 B
icon 1337xHD.Com Note.txt2.8 KB
icon VqFKYC8.jpg55.1 KB