Torrent Details

The House with a Clock in Its Walls 2018 720p HDCAM x264 [MW]
The House with a Clock in Its Walls 2018 720p HDCAM x264 [MW]
Size1.2 GB in 1 file
ReleasesAdded on 23.09.2018 at 18:59 into the Movies category by Unknown.
Status34 seeds & 5 peers.
Hash2277aec6ecbfa639f0d284828f89f54d44293612
Rating
  • YourBT Visitors

Status This torrent has been verified.
*

Torrent Description

General
Format : Matroska
Format version : Version 4 / Version 2
File size : 1.19 GiB
Duration : 1 h 38 min
Overall bit rate : 1 731 kb/s

Video
ID : 1
Format : AVC
Format/Info : Advanced Video Codec
Format profile : [email protected]
Format settings : CABAC / 4 Ref Frames
Format settings, CABAC : Yes
Format settings, RefFrames : 4 frames
Codec ID : V_MPEG4/ISO/AVC
Duration : 1 h 38 min
Bit rate : 1 500 kb/s
Width : 1 280 pixels
Height : 552 pixels
Display aspect ratio : 2.35:1
Frame rate mode : Constant
Frame rate : 29.970 (30000/1001) FPS
Color space : YUV
Chroma subsampling : 4:2:0
Bit depth : 8 bits
Scan type : Progressive
Bits/(Pixel*Frame) : 0.071
Stream size : 1.04 GiB (87%)
Writing library : x264 core 155 r2901 7d0ff22
Default : Yes
Forced : No

Audio
ID : 2
Format : AAC
Format/Info : Advanced Audio Codec
Format profile : LC
Codec ID : A_AAC-2
Duration : 1 h 38 min
Bit rate : 224 kb/s
Channel(s) : 2 channels
Channel positions : Front: L R
Sampling rate : 48.0 kHz
Frame rate : 46.875 FPS (1024 SPF)
Compression mode : Lossy
Stream size : 158 MiB (13%)
Language : English
Default : Yes
Forced : No


Click To Enlarge Image









Similar Torrents

No Similar Torrents Found

If we find similar torrents, we normally show them right here. We couldn't find anything for "".

Torrent Trackers

TRACKER URLSEEDSPEERS
Onlineudp://mgtracker.org:6969/announce345

Files inside this torrent

FILENAMESIZE
icon The House with a Clock in Its Walls 2018 720p HDCAM x264 [MW].mkv1.2 GB