Torrent Details

Photo Not Available
The Nun 2018 720p TS x264 AAC [MW]
Size1.1 GB in 1 file
ReleasesAdded Today at 22:03 into the Movies category by Unknown.
Status148 seeds & 194 peers.
Hasha02513338bf5df9fd1ee6bb1b5600755f499c3a4
Rating
  • YourBT Visitors

Status This torrent has been verified.
*

Torrent Description





General

Format                                   : Matroska

Format version                           : Version 4 / Version 2

File size                                : 1.14 GiB

Duration                                 : 1 h 34 min

Overall bit rate                         : 1 733 kb/s



Video

ID                                       : 1

Format                                   : AVC

Format/Info                              : Advanced Video Codec

Format profile                           : [email protected]

Format settings                          : CABAC / 4 Ref Frames

Format settings, CABAC                   : Yes

Format settings, RefFrames               : 4 frames

Codec ID                                 : V_MPEG4/ISO/AVC

Duration                                 : 1 h 34 min

Bit rate                                 : 1 500 kb/s

Width                                    : 1 280 pixels

Height                                   : 532 pixels

Display aspect ratio                     : 2.40:1

Frame rate mode                          : Constant

Frame rate                               : 29.970 (30000/1001) FPS

Color space                              : YUV

Chroma subsampling                       : 4:2:0

Bit depth                                : 8 bits

Scan type                                : Progressive

Bits/(Pixel*Frame)                       : 0.073

Stream size                              : 1 013 MiB (87%)

Writing library                          : x264 core 155 r2901 7d0ff22

Default                                  : Yes

Forced                                   : No



Audio

ID                                       : 2

Format                                   : AAC

Format/Info                              : Advanced Audio Codec

Format profile                           : LC

Codec ID                                 : A_AAC-2

Duration                                 : 1 h 34 min

Bit rate                                 : 224 kb/s

Channel(s)                               : 2 channels

Channel positions                        : Front: L R

Sampling rate                            : 48.0 kHz

Frame rate                               : 46.875 FPS (1024 SPF)

Compression mode                         : Lossy

Stream size                              : 151 MiB (13%)

Language                                 : English

Default                                  : Yes

Forced                                   : No





http://pichub.site/image/DT4GI

http://pichub.site/image/DHqdg

http://pichub.site/image/DTMI8

http://pichub.site/image/DTf3X

http://pichub.site/image/DTal5

http://pichub.site/image/DTYAJ



Similar Torrents

No Similar Torrents Found

If we find similar torrents, we normally show them right here. We couldn't find anything for "".

Torrent Trackers

TRACKER URLSEEDSPEERS
Onlineudp://tracker.pirateparty.gr:6969/announce190204
Onlineudp://tracker.open-internet.nl:6969/announce166188
Onlineudp://tracker.opentrackr.org:1337/announce148194

Files inside this torrent

FILENAMESIZE
icon The Nun 2018 720p TS x264 AAC [MW].mkv1.1 GB