Torrent Details

Photo Not Available
Paradise PD S01 720p NF WEBRip DDP5 1 x264-monkee[rartv]
Size3.7 GB in 11 files
ReleasesAdded on 08.09.2018 at 16:03 into the Anime category by Unknown.
Status0 seeds & 0 peers.
Hash26594663d0b7d73141d466ba87041864c74472e3
Rating
  • YourBT Visitors

Status This torrent has been verified.
*

Torrent Description

内含 Netflix 官方中字◎集  数 10◎片  长 30分钟◎主  演 达纳·斯耐德 Dana Snyder      塞德里克·亚伯勒 Cedric Yarbrough      大卫·赫尔曼 David Herman      汤姆·肯尼 Tom Kenny      萨拉·乔克 Sarah Chalke      凯尔·金南 Kyle Kinane      Grey Griffin◎简  介  Netflix过去宣布直接预订10集新成人向动画《天堂镇警局 Paradise PD》,该动画由《脆莓公园 Brickleberry》的主创Waco O’Guin及Roger Black负责。  於美国时间8月31日上线的《天堂镇警局》讲述一个小镇警局里全是些不知所 谓的警察,他们爱废话﹑一点也不酷 ,根本就是群辣鸡。在预告可见这新作更黄暴、更没节操,看起来?  以下是配音阵容:  Stanley Hopson及Dusty Marlow/Dana Snyder声演(下同)  Gerald Fitzgerald/Cedric Yarbrough  Kevin Crawford/Dave Herman(就是《脆莓公园》那胖子的配音)  警长Randall Crawford/Tom Kenny  Gina Jabowski/Sarah Chalke  警犬Bullet/Kyle KinaneVideoID : 1Format : AVCFormat/Info : Advanced Video CodecFormat profile : [email protected] settings : CABAC / 3 Ref FramesFormat settings, CABAC : YesFormat settings, ReFrames : 3 framesCodec ID : V_MPEG4/ISO/AVCDuration : 29 min 32 sBit rate mode : VariableBit rate : 2 150 kb/sMaximum bit rate : 3 225 kb/sWidth : 1 920 pixelsHeight : 1 080 pixelsDisplay aspect ratio : 16:9Frame rate mode : ConstantFrame rate : 23.976 (24000/1001) FPSColor space : YUVChroma subsampling : 4:2:0Bit depth : 8 bitsScan type : ProgressiveBits/(Pixel*Frame) : 0.043Stream size : 440 MiB (76%)Writing library : x264 core 148 r2715 7e75228Encoding settings : cabac=1 / ref=3 / deblock=1:0:0 / analyse=0x1:0x111 / me=umh / subme=10 / psy=1 / psy_rd=1.00:0.00 / mixed_ref=1 / me_range=24 / chroma_me=1 / trellis=2 / 8x8dct=0 / cqm=0 / deadzone=21,11 / fast_pskip=1 / chroma_qp_offset=-2 / threads=8 / lookahead_threads=1 / sliced_threads=0 / nr=0 / decimate=1 / interlaced=0 / bluray_compat=0 / stitchable=1 / constrained_intra=0 / bframes=2 / b_pyramid=0 / b_adapt=2 / b_bias=0 / direct=3 / weightb=1 / open_gop=0 / weightp=2 / keyint=48 / keyint_min=25 / scenecut=0 / intra_refresh=0 / rc_lookahead=48 / rc=2pass / mbtree=1 / bitrate=2150 / ratetol=1.0 / qcomp=0.50 / qpmin=6 / qpmax=51 / qpstep=4 / cplxblur=20.0 / qblur=0.5 / vbv_maxrate=3225 / vbv_bufsize=4300 / nal_hrd=vbr / filler=0 / ip_ratio=1.40 / aq=1:1.00Default : YesForced : NoAudioID : 2Format : E-AC-3Format/Info : Enhanced Audio Coding 3Codec ID : A_EAC3Duration : 29 min 32 sBit rate mode : ConstantBit rate : 640 kb/sChannel(s) : 6 channelsChannel positions : Front: L C R, Side: L R, LFESampling rate : 48.0 kHzFrame rate : 187.500 FPS (256 SPF)Compression mode : LossyStream size : 135 MiB (23%)Title : EnglishLanguage : EnglishService kind : Complete MainDefault : YesForced : NoText #1ID : 3Format : UTF-8Codec ID : S_TEXT/UTF8Codec ID/Info : UTF-8 Plain TextDuration : 27 min 26 sBit rate : 104 b/sCount of elements : 549Stream size : 21.1 KiB (0%)Language : EnglishDefault : NoForced : NoText #2ID : 4Format : UTF-8Codec ID : S_TEXT/UTF8Codec ID/Info : UTF-8 Plain TextDuration : 27 min 31 sBit rate : 115 b/sCount of elements : 612Stream size : 23.2 KiB (0%)Title : SDHLanguage : EnglishDefault : NoForced : NoText #3ID : 5Format : UTF-8Codec ID : S_TEXT/UTF8Codec ID/Info : UTF-8 Plain TextDuration : 27 min 32 sBit rate : 171 b/sCount of elements : 475Stream size : 34.5 KiB (0%)Language : ArabicDefault : NoForced : NoText #4ID : 6Format : UTF-8Codec ID : S_TEXT/UTF8Codec ID/Info : UTF-8 Plain TextDuration : 27 min 32 sBit rate : 92 b/sCount of elements : 430Stream size : 18.6 KiB (0%)Language : DanishDefault : NoForced : NoText #5ID : 7Format : UTF-8Codec ID : S_TEXT/UTF8Codec ID/Info : UTF-8 Plain TextDuration : 27 min 32 sBit rate : 100 b/sCount of elements : 486Stream size : 20.2 KiB (0%)Language : GermanDefault : NoForced : NoText #6ID : 8Format : UTF-8Codec ID : S_TEXT/UTF8Codec ID/Info : UTF-8 Plain TextDuration : 27 min 32 sBit rate : 173 b/sCount of elements : 495Stream size : 35.1 KiB (0%)Language : GreekDefault : NoForced : NoText #7ID : 9Format : UTF-8Codec ID : S_TEXT/UTF8Codec ID/Info : UTF-8 Plain TextDuration : 27 min 32 sBit rate : 95 b/sCount of elements : 515Stream size : 19.2 KiB (0%)Language : SpanishDefault : NoForced : NoText #8ID : 10Format : UTF-8Codec ID : S_TEXT/UTF8Codec ID/Info : UTF-8 Plain TextDuration : 27 min 32 sBit rate : 104 b/sCount of elements : 505Stream size : 21.1 KiB (0%)Title : EuropeanLanguage : SpanishDefault : NoForced : NoText #9ID : 11Format : UTF-8Codec ID : S_TEXT/UTF8Codec ID/Info : UTF-8 Plain TextDuration : 27 min 32 sBit rate : 99 b/sCount of elements : 448Stream size : 20.0 KiB (0%)Language : FinnishDefault : NoForced : NoText #10ID : 12Format : UTF-8Codec ID : S_TEXT/UTF8Codec ID/Info : UTF-8 Plain TextDuration : 27 min 32 sBit rate : 99 b/sCount of elements : 492Stream size : 20.0 KiB (0%)Language : FrenchDefault : NoForced : NoText #11ID : 13Format : UTF-8Codec ID : S_TEXT/UTF8Codec ID/Info : UTF-8 Plain TextDuration : 27 min 32 sBit rate : 173 b/sCount of elements : 498Stream size : 35.1 KiB (0%)Language : HebrewDefault : NoForced : NoText #12ID : 14Format : UTF-8Codec ID : S_TEXT/UTF8Codec ID/Info : UTF-8 Plain TextDuration : 27 min 32 sBit rate : 103 b/sCount of elements : 502Stream size : 20.8 KiB (0%)Language : ItalianDefault : NoForced : NoText #13ID : 15Format : UTF-8Codec ID : S_TEXT/UTF8Codec ID/Info : UTF-8 Plain TextDuration : 27 min 32 sBit rate : 80 b/sCount of elements : 492Stream size : 16.2 KiB (0%)Language : JapaneseDefault : NoForced : NoText #14ID : 16Format : UTF-8Codec ID : S_TEXT/UTF8Codec ID/Info : UTF-8 Plain TextDuration : 27 min 25 sBit rate : 113 b/sCount of elements : 489Stream size : 22.8 KiB (0%)Language : KoreanDefault : NoForced : NoText #15ID : 17Format : UTF-8Codec ID : S_TEXT/UTF8Codec ID/Info : UTF-8 Plain TextDuration : 27 min 32 sBit rate : 91 b/sCount of elements : 495Stream size : 18.5 KiB (0%)Language : Norwegian BokmalDefault : NoForced : NoText #16ID : 18Format : UTF-8Codec ID : S_TEXT/UTF8Codec ID/Info : UTF-8 Plain TextDuration : 27 min 32 sBit rate : 82 b/sCount of elements : 464Stream size : 16.7 KiB (0%)Language : DutchDefault : NoForced : NoText #17ID : 19Format : UTF-8Codec ID : S_TEXT/UTF8Codec ID/Info : UTF-8 Plain TextDuration : 27 min 32 sBit rate : 85 b/sCount of elements : 491Stream size : 17.3 KiB (0%)Language : PolishDefault : NoForced : NoText #18ID : 20Format : UTF-8Codec ID : S_TEXT/UTF8Codec ID/Info : UTF-8 Plain TextDuration : 27 min 25 sBit rate : 99 b/sCount of elements : 505Stream size : 20.0 KiB (0%)Language : PortugueseDefault : NoForced : NoText #19ID : 21Format : UTF-8Codec ID : S_TEXT/UTF8Codec ID/Info : UTF-8 Plain TextDuration : 27 min 32 sBit rate : 99 b/sCount of elements : 492Stream size : 20.0 KiB (0%)Title : BrazilianLanguage : PortugueseDefault : NoForced : NoText #20ID : 22Format : UTF-8Codec ID : S_TEXT/UTF8Codec ID/Info : UTF-8 Plain TextDuration : 27 min 32 sBit rate : 99 b/sCount of elements : 499Stream size : 20.1 KiB (0%)Language : RomanianDefault : NoForced : NoText #21ID : 23Format : UTF-8Codec ID : S_TEXT/UTF8Codec ID/Info : UTF-8 Plain TextDuration : 27 min 25 sBit rate : 155 b/sCount of elements : 499Stream size : 31.3 KiB (0%)Language : RussianDefault : NoForced : NoText #22ID : 24Format : UTF-8Codec ID : S_TEXT/UTF8Codec ID/Info : UTF-8 Plain TextDuration : 27 min 25 sBit rate : 91 b/sCount of elements : 482Stream size : 18.4 KiB (0%)Language : SwedishDefault : NoForced : NoText #23ID : 25Format : UTF-8Codec ID : S_TEXT/UTF8Codec ID/Info : UTF-8 Plain TextDuration : 27 min 32 sBit rate : 272 b/sCount of elements : 516Stream size : 54.9 KiB (0%)Language : ThaiDefault : NoForced : NoText #24ID : 26Format : UTF-8Codec ID : S_TEXT/UTF8Codec ID/Info : UTF-8 Plain TextDuration : 27 min 30 sBit rate : 94 b/sCount of elements : 487Stream size : 19.0 KiB (0%)Language : TurkishDefault : NoForced : NoText #25ID : 27Format : UTF-8Codec ID : S_TEXT/UTF8Codec ID/Info : UTF-8 Plain TextDuration : 27 min 32 sBit rate : 97 b/sCount of elements : 507Stream size : 19.6 KiB (0%)Title : SimplifiedLanguage : ChineseDefault : NoForced : NoText #26ID : 28Format : UTF-8Codec ID : S_TEXT/UTF8Codec ID/Info : UTF-8 Plain TextDuration : 27 min 32 sBit rate : 94 b/sCount of elements : 506Stream size : 19.0 KiB (0%)Title : TraditionalLanguage : ChineseDefault : NoForced : No



Similar Torrents

No Similar Torrents Found

If we find similar torrents, we normally show them right here. We couldn't find anything for "".

Torrent Trackers

Files inside this torrent

FILENAMESIZE
icon Paradise.PD.S01E01.720p.NF.WEB-DL.DDP5.1.x264-monkee.mkv422.3 MB
icon Paradise.PD.S01E10.720p.NF.WEB-DL.DDP5.1.x264-monkee.mkv394.5 MB
icon Paradise.PD.S01E04.720p.NF.WEB-DL.DDP5.1.x264-monkee.mkv377 MB
icon Paradise.PD.S01E06.720p.NF.WEB-DL.DDP5.1.x264-monkee.mkv374 MB
icon Paradise.PD.S01E08.720p.NF.WEB-DL.DDP5.1.x264-monkee.mkv373.5 MB
icon Paradise.PD.S01E05.720p.NF.WEB-DL.DDP5.1.x264-monkee.mkv368.7 MB
icon Paradise.PD.S01E03.720p.NF.WEB-DL.DDP5.1.x264-monkee.mkv367.4 MB
icon Paradise.PD.S01E07.720p.NF.WEB-DL.DDP5.1.x264-monkee.mkv365.7 MB
icon Paradise.PD.S01E09.720p.NF.WEB-DL.DDP5.1.x264-monkee.mkv364.4 MB
icon Paradise.PD.S01E02.720p.NF.WEB-DL.DDP5.1.x264-monkee.mkv342 MB
icon RARBG.txt31 B