Torrent Details

Photo Not Available
Deadpool 2 2018 Super Duper Cut (2160p x265 10bit FS79 Joy)
Size6.2 GB in 1 file
ReleasesAdded Today at 13:07 into the Movies category by Unknown.
Status15 seeds & 22 peers.
Hashf5c28a65fa6fb970c599fc50e9ea807c64096cbd
Rating
  • YourBT Visitors

Status This torrent has been verified.
*

Torrent Description











Media Information

REPACK REASON                 : Bad HDR to SDR conversion that clipped bright colors out of range.



Media Information

General

Format                                   : Matroska

Format version                           : Version 4 / Version 2

File size                                : 6.23 GiB

Duration                                 : 2 h 13 min

Overall bit rate                         : 6 651 kb/s

Movie name                               : Deadpool 2 2018 Super Duper Cut  (2160p x265 10bit FS79 Joy)[UTR]

Encoded date                             : UTC 2018-08-29 13:25:43

Writing application                      : mkvmerge v24.0.0 ('Beyond The Pale') 64-bit

Writing library                          : libebml v1.3.6 + libmatroska v1.4.9

Cover                                    : Yes

Attachments                              : cover.jpg

Writing frontend                         : StaxRip v1.8.2.0



Video

ID                                       : 1

Format                                   : HEVC

Format/Info                              : High Efficiency Video Coding

Format profile                           : Main [email protected]@Main

Codec ID                                 : V_MPEGH/ISO/HEVC

Duration                                 : 2 h 13 min

Bit rate                                 : 5 970 kb/s

Width                                    : 3 840 pixels

Height                                   : 1 600 pixels

Display aspect ratio                     : 2.40:1

Frame rate mode                          : Constant

Frame rate                               : 23.976 (24000/1001) FPS

Color space                              : YUV

Chroma subsampling                       : 4:2:0

Bit depth                                : 10 bits

Bits/(Pixel*Frame)                       : 0.041

Stream size                              : 5.59 GiB (90%)

Writing library                          : x265 2.8+19-bcdc610cf5f0:[Windows][MSVC 1914][64 bit] 10bit

Encoding settings                        : cpuid=1111039 / frame-threads=4 / numa-pools=16 / wpp / no-pmode / no-pme / no-psnr / ssim / log-level=2 / input-csp=1 / input-res=3840x1600 / interlace=0 / total-frames=192757 / level-idc=0 / high-tier=1 / uhd-bd=0 / ref=3 / no-allow-non-conformance / no-repeat-headers / annexb / no-aud / no-hrd / info / hash=0 / no-temporal-layers / open-gop / min-keyint=23 / keyint=250 / gop-lookahead=0 / bframes=8 / b-adapt=2 / b-pyramid / bframe-bias=0 / rc-lookahead=20 / lookahead-slices=8 / scenecut=40 / radl=0 / no-intra-refresh / ctu=64 / min-cu-size=8 / no-rect / no-amp / max-tu-size=32 / tu-inter-depth=1 / tu-intra-depth=1 / limit-tu=0 / rdoq-level=1 / dynamic-rd=4.00 / ssim-rd / signhide / no-tskip / nr-intra=0 / nr-inter=0 / no-constrained-intra / strong-intra-smoothing / max-merge=2 / limit-refs=3 / no-limit-modes / me=1 / subme=2 / merange=57 / temporal-mvp / weightp / weightb / analyze-src-pics / deblock=0:0 / sao / sao-non-deblock / rd=3 / no-early-skip / rskip / no-fast-intra / no-tskip-fast / no-cu-lossless / b-intra / no-splitrd-skip / rdpenalty=0 / psy-rd=0.00 / psy-rdoq=0.00 / no-rd-refine / no-lossless / cbqpoffs=0 / crqpoffs=0 / rc=abr / bitrate=6000 / qcomp=0.60 / qpstep=4 / stats-write=0 / stats-read=2 / cplxblur=20.0 / qblur=0.5 / vbv-maxrate=12000 / vbv-bufsize=24000 / vbv-init=0.9 / ipratio=1.40 / pbratio=1.30 / aq-mode=3 / aq-strength=1.00 / cutree / zone-count=0 / no-strict-cbr / qg-size=32 / no-rc-grain / qpmax=69 / qpmin=0 / no-const-vbv / sar=0 / overscan=0 / videoformat=5 / range=0 / colorprim=2 / transfer=2 / colormatrix=2 / chromaloc=0 / display-window=0 / max-cll=0,0 / min-luma=0 / max-luma=1023 / log2-max-poc-lsb=8 / vui-timing-info / vui-hrd-info / slices=1 / no-opt-qp-pps / no-opt-ref-list-length-pps / multi-pass-opt-rps / scenecut-bias=0.05 / no-opt-cu-delta-qp / no-aq-motion / no-hdr / no-hdr-opt / no-dhdr10-opt / no-idr-recovery-sei / analysis-reuse-level=10 / scale-factor=0 / refine-intra=0 / refine-inter=0 / refine-mv=0 / limit-sao / ctu-info=0 / no-lowpass-dct / refine-mv-type=0 / copy-pic=1 / max-ausize-factor=1.0 / no-dynamic-refine / no-single-sei

Default                                  : Yes

Forced                                   : No



Audio #1

ID                                       : 2

Format                                   : AAC

Format/Info                              : Advanced Audio Codec

Format profile                           : LC

Codec ID                                 : A_AAC

Duration                                 : 2 h 13 min

Bit rate                                 : 486 kb/s

Channel(s)                               : 7 channels

Channel(s)_Original                      : 8 channels

Channel positions                        : Front: L C R, Side: L R, Back: L R, LFE

Sampling rate                            : 48.0 kHz

Frame rate                               : 46.875 FPS (1024 spf)

Compression mode                         : Lossy

Delay relative to video                  : 9 ms

Stream size                              : 466 MiB (7%)

Language                                 : English

Default                                  : No

Forced                                   : No



Audio #2

ID                                       : 3

Format                                   : AAC

Format/Info                              : Advanced Audio Codec

Format profile                           : LC

Codec ID                                 : A_AAC

Duration                                 : 2 h 13 min

Bit rate                                 : 84.7 kb/s

Channel(s)                               : 2 channels

Channel positions                        : Front: L R

Sampling rate                            : 48.0 kHz

Frame rate                               : 46.875 FPS (1024 spf)

Compression mode                         : Lossy

Delay relative to video                  : 9 ms

Stream size                              : 81.2 MiB (1%)

Language                                 : Spanish

Default                                  : No

Forced                                   : No



Audio #3

ID                                       : 4

Format                                   : AAC

Format/Info                              : Advanced Audio Codec

Format profile                           : LC

Codec ID                                 : A_AAC

Duration                                 : 2 h 13 min

Bit rate                                 : 84.4 kb/s

Channel(s)                               : 2 channels

Channel positions                        : Front: L R

Sampling rate                            : 48.0 kHz

Frame rate                               : 46.875 FPS (1024 spf)

Compression mode                         : Lossy

Delay relative to video                  : 9 ms

Stream size                              : 80.9 MiB (1%)

Language                                 : French

Default                                  : No

Forced                                   : No



Subtitle #1

ID                                       : 5

Format                                   : PGS

Muxing mode                              : zlib

Codec ID                                 : S_HDMV/PGS

Codec ID/Info                            : Picture based subtitle format used on BDs/HD-DVDs

Duration                                 : 52 min 55 s

Bit rate                                 : 122 b/s

Count of elements                        : 8

Stream size                              : 47.6 KiB (0%)

Language                                 : English

Default                                  : No

Forced                                   : No



Subtitle #2

ID                                       : 6

Format                                   : VobSub

Muxing mode                              : zlib

Codec ID                                 : S_VOBSUB

Codec ID/Info                            : Picture based subtitle format used on DVDs

Duration                                 : 2 h 13 min

Bit rate                                 : 13.9 kb/s

Count of elements                        : 2426

Stream size                              : 13.2 MiB (0%)

Language                                 : English

Default                                  : No

Forced                                   : No



Subtitle #3

ID                                       : 7

Format                                   : VobSub

Muxing mode                              : zlib

Codec ID                                 : S_VOBSUB

Codec ID/Info                            : Picture based subtitle format used on DVDs

Duration                                 : 2 h 11 min

Bit rate                                 : 10.3 kb/s

Count of elements                        : 1925

Stream size                              : 9.70 MiB (0%)

Language                                 : French

Default                                  : No

Forced                                   : No



Subtitle #4

ID                                       : 8

Format                                   : VobSub

Muxing mode                              : zlib

Codec ID                                 : S_VOBSUB

Codec ID/Info                            : Picture based subtitle format used on DVDs

Duration                                 : 2 h 11 min

Bit rate                                 : 10.3 kb/s

Count of elements                        : 1921

Stream size                              : 9.72 MiB (0%)

Language                                 : Spanish

Default                                  : No

Forced                                   : No



Subtitle #5

ID                                       : 9

Format                                   : UTF-8

Codec ID                                 : S_TEXT/UTF8

Codec ID/Info                            : UTF-8 Plain Text

Duration                                 : 2 h 13 min

Bit rate                                 : 24 b/s

Count of elements                        : 1567

Stream size                              : 24.3 KiB (0%)

Language                                 : Arabic

Default                                  : No

Forced                                   : No



Subtitle #6

ID                                       : 10

Format                                   : UTF-8

Codec ID                                 : S_TEXT/UTF8

Codec ID/Info                            : UTF-8 Plain Text

Duration                                 : 2 h 11 min

Bit rate                                 : 54 b/s

Count of elements                        : 1112

Stream size                              : 52.8 KiB (0%)

Language                                 : Dutch

Default                                  : No

Forced                                   : No



Subtitle #7

ID                                       : 11

Format                                   : UTF-8

Codec ID                                 : S_TEXT/UTF8

Codec ID/Info                            : UTF-8 Plain Text

Duration                                 : 2 h 13 min

Bit rate                                 : 109 b/s

Count of elements                        : 2128

Stream size                              : 107 KiB (0%)

Language                                 : Persian

Default                                  : No

Forced                                   : No



Subtitle #8

ID                                       : 12

Format                                   : UTF-8

Codec ID                                 : S_TEXT/UTF8

Codec ID/Info                            : UTF-8 Plain Text

Duration                                 : 2 h 13 min

Bit rate                                 : 123 b/s

Count of elements                        : 2142

Stream size                              : 121 KiB (0%)

Language                                 : Indonesian

Default                                  : No

Forced                                   : No



Subtitle #9

ID                                       : 13

Format                                   : UTF-8

Codec ID                                 : S_TEXT/UTF8

Codec ID/Info                            : UTF-8 Plain Text

Duration                                 : 2 h 13 min

Bit rate                                 : 126 b/s

Count of elements                        : 2176

Stream size                              : 124 KiB (0%)

Language                                 : Malay

Default                                  : No

Forced                                   : No



Subtitle #10

ID                                       : 14

Format                                   : UTF-8

Codec ID                                 : S_TEXT/UTF8

Codec ID/Info                            : UTF-8 Plain Text

Duration                                 : 2 h 13 min

Bit rate                                 : 109 b/s

Count of elements                        : 2129

Stream size                              : 107 KiB (0%)

Language                                 : Russian

Default                                  : No

Forced                                   : No



Subtitle #11

ID                                       : 15

Format                                   : UTF-8

Codec ID                                 : S_TEXT/UTF8

Codec ID/Info                            : UTF-8 Plain Text

Duration                                 : 2 h 11 min

Bit rate                                 : 61 b/s

Count of elements                        : 1865

Stream size                              : 59.7 KiB (0%)

Language                                 : Spanish

Default                                  : No

Forced                                   : No



Subtitle #12

ID                                       : 16

Format                                   : UTF-8

Codec ID                                 : S_TEXT/UTF8

Codec ID/Info                            : UTF-8 Plain Text

Duration                                 : 2 h 11 min

Bit rate                                 : 64 b/s

Count of elements                        : 1680

Stream size                              : 62.5 KiB (0%)

Language                                 : Turkish

Default                                  : No

Forced                                   : No



Menu

00:00:00.000                             : en:Chapter 1

00:02:31.693                             : en:Chapter 2

00:07:55.517                             : en:Chapter 3

00:10:46.229                             : en:Chapter 4

00:14:21.194                             : en:Chapter 5

00:17:42.937                             : en:Chapter 6

00:19:10.775                             : en:Chapter 7

00:24:14.370                             : en:Chapter 8

00:27:11.630                             : en:Chapter 9

00:37:17.444                             : en:Chapter 10

00:42:11.821                             : en:Chapter 11

00:44:40.428                             : en:Chapter 12

00:49:30.926                             : en:Chapter 13

00:52:20.471                             : en:Chapter 14

00:56:47.613                             : en:Chapter 15

01:01:00.073                             : en:Chapter 16

01:04:47.050                             : en:Chapter 17

01:07:22.997                             : en:Chapter 18

01:09:45.098                             : en:Chapter 19

01:11:45.426                             : en:Chapter 20

01:15:21.016                             : en:Chapter 21

01:19:19.213                             : en:Chapter 22

01:21:00.189                             : en:Chapter 23

01:24:49.543                             : en:Chapter 24

01:29:10.845                             : en:Chapter 25

01:32:30.420                             : en:Chapter 26

01:36:11.391                             : en:Chapter 27

01:38:18.851                             : en:Chapter 28

01:42:06.329                             : en:Chapter 29

01:44:18.711                             : en:Chapter 30

01:46:03.774                             : en:Chapter 31

01:48:06.730                             : en:Chapter 32

01:51:31.977                             : en:Chapter 33

01:55:05.398                             : en:Chapter 34

01:58:16.047                             : en:Chapter 35

02:02:04.317                             : en:Chapter 36



Source Information

Release: Deadpool.2.2018.Super.Duper.Cut.2160p.UHD.BluRay.REMUX.HDR.HEVC.Atmos-EPSiLON.mkv (50.58 GBs)





UTR wrote:Note From UTR

We have no issue with individuals posting or re-uploading our torrents on a platform we aren't on. However, if this is something you'd like to do, please do so in a 'as-is' format. We ask that you do not create a new torrent, include all descriptions you see above including the UTR logo, tags, notes and screenshots. If you'd like to become a permanent poster on a website we don't post to, feel free to get in contact with a UniTeam member.



If possible please donate: BTC 1QA5fum5AyXvWzdVCkQzUNvw3Ef15fHRaR



Similar Torrents

No Similar Torrents Found

If we find similar torrents, we normally show them right here. We couldn't find anything for "".

Torrent Trackers

TRACKER URLSEEDSPEERS
Onlineudp://tracker.pirateparty.gr:6969/announce1719
Onlineudp://tracker.opentrackr.org:1337/announce1522

Files inside this torrent

FILENAMESIZE
icon Deadpool 2 2018 Super Duper Cut (2160p x265 10bit FS79 Joy).mkv6.2 GB