Torrent Details

Photo Not Available
Deadpool 2 2018 1080p HC HDRip x264 [MW]
Size2.7 GB in 1 file
ReleasesAdded Yesterday at 23:45 into the Movies category by Unknown.
Status142 seeds & 11 peers.
Hashf2feb3f9ca8ec87a0a3b2a713692a4f785b5760c
Rating
  • YourBT Visitors

Status This torrent has been verified.
*

Torrent Description







General

Format                                   : Matroska

Format version                           : Version 4 / Version 2

File size                                : 2.66 GiB

Duration                                 : 1 h 58 min

Overall bit rate                         : 3 200 kb/s



Video

ID                                       : 1

Format                                   : AVC

Format/Info                              : Advanced Video Codec

Format profile                           : [email protected]

Format settings                          : CABAC / 4 Ref Frames

Format settings, CABAC                   : Yes

Format settings, RefFrames               : 4 frames

Codec ID                                 : V_MPEG4/ISO/AVC

Duration                                 : 1 h 58 min

Bit rate                                 : 3 000 kb/s

Width                                    : 1 920 pixels

Height                                   : 850 pixels

Display aspect ratio                     : 2.25:1

Frame rate mode                          : Constant

Frame rate                               : 29.970 (30000/1001) FPS

Color space                              : YUV

Chroma subsampling                       : 4:2:0

Bit depth                                : 8 bits

Scan type                                : Progressive

Bits/(Pixel*Frame)                       : 0.061

Stream size                              : 2.47 GiB (93%)

Writing library                          : x264 core 155 r2901 7d0ff22

Default                                  : Yes

Forced                                   : No



Audio

ID                                       : 2

Format                                   : AAC

Format/Info                              : Advanced Audio Codec

Format profile                           : LC

Codec ID                                 : A_AAC-2

Duration                                 : 1 h 58 min

Bit rate                                 : 224 kb/s

Channel(s)                               : 2 channels

Channel positions                        : Front: L R

Sampling rate                            : 48.0 kHz

Frame rate                               : 46.875 FPS (1024 SPF)

Compression mode                         : Lossy

Stream size                              : 191 MiB (7%)

Language                                 : English

Default                                  : Yes

Forced                                   : No





Click To Enlarge Image















Similar Torrents

No Similar Torrents Found

If we find similar torrents, we normally show them right here. We couldn't find anything for "".

Torrent Trackers

TRACKER URLSEEDSPEERS
Onlineudp://tracker.coppersurfer.tk:6969/announce14211
Onlineudp://tracker.pirateparty.gr:6969/announce13711
Onlineudp://tracker.opentrackr.org:1337/announce538
Onlineudp://tracker.open-internet.nl:6969/announce518

Files inside this torrent

FILENAMESIZE
icon Deadpool 2 2018 1080p HC HDRip x264 [MW].mkv2.7 GB