Torrent Details

Photo Not Available
Deadpool 2 (2018) Super Duper Cut UNRATED 1080p Bluray Org 6 CH Multi Audio [English+Hindi+Tamil+Telugu] Encoded By-RishiBhai[RDLinks]
Size5.4 GB in 6 files
ReleasesAdded on 24.08.2018 at 23:33 into the Movies category by Unknown.
Status19 seeds & 16 peers.
Hashe5a7d7b201827c5a6f8de17bc500f7651e4a349c
Rating
  • YourBT Visitors

Status This torrent has been verified.
*

Torrent Description



Quote:General

Complete name                            : Deadpool 2 (2018) Super Duper Cut UNRATED 1080p Bluray Org. 6 CH. Multi Audio [English+Hindi+Tamil+Telugu] Encoded By-RishiBhai[RDLinks].mkv

Format                                   : Matroska

Format version                           : Version 4 / Version 2

File size                                : 5.43 GiB

Duration                                 : 2 h 13 min

Overall bit rate                         : 5 799 kb/s

Movie name                               : Encoded & Released By-RishiBhai[RDLinks]

Writing application                      : Lavf58.17.100

Writing library                          : Lavf58.17.100

ErrorDetectionType                       : Per level 1



Video

ID                                       : 1

Format                                   : AVC

Format/Info                              : Advanced Video Codec

Format profile                           : [email protected]

Format settings                          : CABAC / 2 Ref Frames

Format settings, CABAC                   : Yes

Format settings, RefFrames               : 2 frames

Codec ID                                 : V_MPEG4/ISO/AVC

Duration                                 : 2 h 13 min

Bit rate                                 : 4 000 kb/s

Width                                    : 1 920 pixels

Height                                   : 1 080 pixels

Display aspect ratio                     : 2.40:1

Frame rate mode                          : Constant

Frame rate                               : 23.976 (24000/1001) FPS

Color space                              : YUV

Chroma subsampling                       : 4:2:0

Bit depth                                : 8 bits

Scan type                                : Progressive

Bits/(Pixel*Frame)                       : 0.080

Stream size                              : 3.64 GiB (67%)

Writing library                          : x264 core 155 r2901

Encoding settings                        : cabac=1 / ref=2 / deblock=1:0:0 / analyse=0x1:0x131 / me=hex / subme=7 / psy=1 / psy_rd=1.00:0.00 / mixed_ref=0 / me_range=16 / chroma_me=1 / trellis=1 / 8x8dct=0 / cqm=0 / deadzone=21,11 / fast_pskip=1 / chroma_qp_offset=-2 / threads=6 / lookahead_threads=1 / sliced_threads=0 / nr=0 / decimate=1 / interlaced=0 / bluray_compat=0 / constrained_intra=0 / bframes=3 / b_pyramid=0 / b_adapt=1 / b_bias=0 / direct=0 / weightb=0 / open_gop=0 / weightp=2 / keyint=239 / keyint_min=23 / scenecut=40 / intra_refresh=0 / rc_lookahead=40 / rc=2pass / mbtree=1 / bitrate=4000 / ratetol=1.0 / qcomp=0.60 / qpmin=10 / qpmax=69 / qpstep=4 / cplxblur=20.0 / qblur=0.5 / vbv_maxrate=40500 / vbv_bufsize=24000 / nal_hrd=none / filler=0 / ip_ratio=1.40 / aq=3:1.00

Default                                  : Yes

Forced                                   : No



Audio #1

ID                                       : 2

Format                                   : AC-3

Format/Info                              : Audio Coding 3

Codec ID                                 : A_AC3

Duration                                 : 2 h 13 min

Bit rate mode                            : Constant

Bit rate                                 : 448 kb/s

Channel(s)                               : 6 channels

Channel positions                        : Front: L C R, Side: L R, LFE

Sampling rate                            : 48.0 kHz

Frame rate                               : 31.250 FPS (1536 SPF)

Bit depth                                : 16 bits

Compression mode                         : Lossy

Stream size                              : 429 MiB (8%)

Title                                    : Eng-Rishi

Writing library                          : Lavc58.19.104 ac3_fixed

Language                                 : English

Service kind                             : Complete Main

Default                                  : Yes

Forced                                   : No



Audio #2

ID                                       : 3

Format                                   : AC-3

Format/Info                              : Audio Coding 3

Codec ID                                 : A_AC3

Duration                                 : 2 h 13 min

Bit rate mode                            : Constant

Bit rate                                 : 448 kb/s

Channel(s)                               : 6 channels

Channel positions                        : Front: L C R, Side: L R, LFE

Sampling rate                            : 48.0 kHz

Frame rate                               : 31.250 FPS (1536 SPF)

Bit depth                                : 16 bits

Compression mode                         : Lossy

Stream size                              : 429 MiB (8%)

Title                                    : Hindi-Rishi

Writing library                          : Lavc58.19.104 ac3_fixed

Language                                 : Hindi

Service kind                             : Complete Main

Default                                  : No

Forced                                   : No



Audio #3

ID                                       : 4

Format                                   : AC-3

Format/Info                              : Audio Coding 3

Codec ID                                 : A_AC3

Duration                                 : 2 h 13 min

Bit rate mode                            : Constant

Bit rate                                 : 448 kb/s

Channel(s)                               : 6 channels

Channel positions                        : Front: L C R, Side: L R, LFE

Sampling rate                            : 48.0 kHz

Frame rate                               : 31.250 FPS (1536 SPF)

Bit depth                                : 16 bits

Compression mode                         : Lossy

Stream size                              : 429 MiB (8%)

Title                                    : Tamil-Rishi

Writing library                          : Lavc58.19.104 ac3_fixed

Language                                 : Tamil

Service kind                             : Complete Main

Default                                  : No

Forced                                   : No



Audio #4

ID                                       : 5

Format                                   : AC-3

Format/Info                              : Audio Coding 3

Codec ID                                 : A_AC3

Duration                                 : 2 h 13 min

Bit rate mode                            : Constant

Bit rate                                 : 448 kb/s

Channel(s)                               : 6 channels

Channel positions                        : Front: L C R, Side: L R, LFE

Sampling rate                            : 48.0 kHz

Frame rate                               : 31.250 FPS (1536 SPF)

Bit depth                                : 16 bits

Compression mode                         : Lossy

Stream size                              : 429 MiB (8%)

Title                                    : Telugu-Rishi

Writing library                          : Lavc58.19.104 ac3_fixed

Language                                 : Telugu

Service kind                             : Complete Main

Default                                  : No

Forced                                   : No



Text

ID                                       : 6

Format                                   : UTF-8

Codec ID                                 : S_TEXT/UTF8

Codec ID/Info                            : UTF-8 Plain Text

Duration                                 : 2 h 13 min

Title                                    : Eng-Rishi

Default                                  : No

Forced                                   : NoScreenshots:-























Quote:Uploader's Note:-



Thanks CHDBits for video source.

Thanks PYZ and Hammer for audio sources.

I know I'm uploading this movie late,I was doing my best to bring you quality release without any downloading problem

Seeding from the server 24x7(want to know more about the server included in the folder)

I hope you all will like it.



Similar Torrents

No Similar Torrents Found

If we find similar torrents, we normally show them right here. We couldn't find anything for "".

Torrent Trackers

TRACKER URLSEEDSPEERS
Onlineudp://tracker.pirateparty.gr:6969/announce1915
Onlineudp://tracker.coppersurfer.tk:6969/announce1615
Onlineudp://tracker.opentrackr.org:1337/announce1516
Onlineudp://tracker.open-internet.nl:6969/announce88

Files inside this torrent

FILENAMESIZE
icon Deadpool 2 (2018) Super Duper Cut UNRATED 1080p Bluray Org. 6 CH. Multi Audio [English+Hindi+Tamil+Telugu] Encoded By-RishiBhai[RDLinks].mkv5.4 GB
icon Torrent Downloaded From 1337x.to.txt312 B
icon Torrent downloaded from bt-scene.cc.txt275 B
icon Torrent downloaded from katcr.co.txt30 B
icon Torrent seeded By evo-host.pw.txt184 B
icon [TGx]Downloaded from torrentgalaxy.org .txt691 B