Torrent Details

Photo Not Available
Deadpool 2 2018 1080p HC HDRip x264 Dual Audio [Hindi - English] [MW]
Size2.7 GB in 1 file
ReleasesAdded Yesterday at 23:10 into the Movies category by Unknown.
Status155 seeds & 27 peers.
Hash7252cfc77928614fc3de52407b25368acb94b8c3
Rating
  • YourBT Visitors

Status This torrent has been verified.
*

Torrent Description







General

Format                                   : Matroska

Format version                           : Version 4 / Version 2

File size                                : 2.69 GiB

Duration                                 : 1 h 58 min

Overall bit rate                         : 3 233 kb/s



Video

ID                                       : 1

Format                                   : AVC

Format/Info                              : Advanced Video Codec

Format profile                           : [email protected]

Format settings                          : CABAC / 4 Ref Frames

Format settings, CABAC                   : Yes

Format settings, RefFrames               : 4 frames

Codec ID                                 : V_MPEG4/ISO/AVC

Duration                                 : 1 h 58 min

Bit rate                                 : 3 000 kb/s

Width                                    : 1 920 pixels

Height                                   : 850 pixels

Display aspect ratio                     : 2.25:1

Frame rate mode                          : Constant

Frame rate                               : 29.970 (30000/1001) FPS

Color space                              : YUV

Chroma subsampling                       : 4:2:0

Bit depth                                : 8 bits

Scan type                                : Progressive

Bits/(Pixel*Frame)                       : 0.061

Stream size                              : 2.47 GiB (92%)

Writing library                          : x264 core 155 r2901 7d0ff22

Default                                  : Yes

Forced                                   : No



Audio #1

ID                                       : 2

Format                                   : AAC

Format/Info                              : Advanced Audio Codec

Format profile                           : LC

Codec ID                                 : A_AAC-2

Duration                                 : 1 h 58 min

Bit rate                                 : 128 kb/s

Channel(s)                               : 2 channels

Channel positions                        : Front: L R

Sampling rate                            : 48.0 kHz

Frame rate                               : 46.875 FPS (1024 SPF)

Compression mode                         : Lossy

Delay relative to video                  : 3 ms

Stream size                              : 109 MiB (4%)

Language                                 : Hindi

Default                                  : Yes

Forced                                   : No



Audio #2

ID                                       : 3

Format                                   : AAC

Format/Info                              : Advanced Audio Codec

Format profile                           : LC

Codec ID                                 : A_AAC-2

Duration                                 : 1 h 58 min

Bit rate                                 : 128 kb/s

Channel(s)                               : 2 channels

Channel positions                        : Front: L R

Sampling rate                            : 48.0 kHz

Frame rate                               : 46.875 FPS (1024 SPF)

Compression mode                         : Lossy

Stream size                              : 109 MiB (4%)

Language                                 : English

Default                                  : No

Forced                                   : No





Click To Enlarge Image



















Similar Torrents

No Similar Torrents Found

If we find similar torrents, we normally show them right here. We couldn't find anything for "".

Torrent Trackers

TRACKER URLSEEDSPEERS
Onlineudp://tracker.pirateparty.gr:6969/announce15527
Onlineudp://tracker.coppersurfer.tk:6969/announce15425
Onlineudp://tracker.open-internet.nl:6969/announce758
Onlineudp://tracker.opentrackr.org:1337/announce7012

Files inside this torrent

FILENAMESIZE
icon Deadpool 2 2018 1080p HC HDRip x264 Dual Audio [Hindi - English] [MW].mkv2.7 GB